手机冰冰网

 找回密码
 开放注册,禁止乱回复
搜索
查看: 2611|回复: 23

[港台] 叶丽仪《上海滩》[DVD-VOB][115网盘下载][原版MTV][KTV/双音轨]

[复制链接]
 成长值: 615

4461

主题

4725

帖子

15万

积分

信陵

Rank: 16Rank: 16Rank: 16Rank: 16

UID
1
积分
158148
冰币
476539
威望
741

制作组管理员宣传高手精帖强人蓝钻勋章大富之家晶钻勋章

发表于 2012-7-22 17:38:24 | 显示全部楼层 |阅读模式 |        |

K:\电驴目录\MTV\115\待上传\已传\冰冰高清[www.aapig.com.cn]叶丽仪《上海滩》.VOB
   General
      Complete name : K:\电驴目录\MTV\115\待上传\已传\冰冰高清[www.aapig.com.cn]叶丽仪《上海滩》.VOB
      Format : MPEG-PS
      File size : 132 MiB
      Duration : 3mn 27s
      Overall bit rate : 5 339 Kbps
      Writing library : encoded by TMPGEnc 4.0 XPress Version. 4.2.3.193
   Video #224
      ID : 224 (0xE0)
      Format : MPEG Video
      Format version : Version 2
      Format profile : Main@Main
      Format settings, BVOP : Yes
      Format settings, Matrix : Custom
      Format settings, GOP : M=3, N=16
      Duration : 3mn 27s
      Bit rate : 4 465 Kbps
      Maximum bit rate : 4 500 Kbps
      Width : 720 pixels
      Height : 480 pixels
      Display aspect ratio : 4:3
      Frame rate : 29.970 fps
      Standard : NTSC
      Color space : YUV
      Chroma subsampling : 4:2:0
      Bit depth : 8 bits
      Scan type : Interlaced
      Scan order : Top Field First
      Compression mode : Lossy
      Bits/(Pixel*Frame) : 0.431
      Stream size : 110 MiB (84%)
      Writing library : TMPGEnc XPress 4.2.3.193
   Audio #192
      ID : 192 (0xC0)
      Format : MPEG Audio
      Format version : Version 1
      Format profile : Layer 2
      Duration : 3mn 27s
      Bit rate mode : Constant
      Bit rate : 384 Kbps
      Channel(s) : 2 channels
      Sampling rate : 48.0 KHz
      Compression mode : Lossy
      Stream size : 9.49 MiB (7%)
   Audio #193
      ID : 193 (0xC1)
      Format : MPEG Audio
      Format version : Version 1
      Format profile : Layer 2
      Duration : 3mn 27s
      Bit rate mode : Constant
      Bit rate : 384 Kbps
      Channel(s) : 2 channels
      Sampling rate : 48.0 KHz
      Compression mode : Lossy
      Stream size : 9.49 MiB (7%)




115网盘下载地址
游客,如果您要查看本帖隐藏内容请回复,   如果您想享受免回复免冰币无广告权限→→请捐助论坛

0

主题

103

帖子

12

积分

大兵

Rank: 1

UID
51812
积分
12
冰币
118
威望
0
发表于 2012-7-23 18:03:59 | 显示全部楼层
谢谢  经典啊   !!!!!
回复 支持 反对

使用道具 举报

14

主题

425

帖子

39

积分

小将

Rank: 2

UID
56166
积分
39
冰币
390
威望
0
发表于 2012-7-23 19:42:41 | 显示全部楼层
感谢分享
努力是最好的生活方式
回复 支持 反对

使用道具 举报

0

主题

3387

帖子

1万

积分

★永久无敌大神侠★

Rank: 12Rank: 12Rank: 12

UID
5723
积分
18111
冰币
90599
威望
-101

捐助会员冰冰网永久会员

发表于 2012-8-7 16:35:43 | 显示全部楼层
谢谢分享
谢谢分享
回复 支持 反对

使用道具 举报

0

主题

2429

帖子

167

积分

中将

Rank: 2

UID
51343
积分
167
冰币
1666
威望
0
发表于 2012-8-7 19:59:05 | 显示全部楼层
喜欢。谢谢分享
回复 支持 反对

使用道具 举报

0

主题

1646

帖子

85

积分

小将

Rank: 2

UID
52551
积分
85
冰币
885
威望
0
发表于 2012-9-7 13:34:25 | 显示全部楼层
好经典,谢谢
回复 支持 反对

使用道具 举报

1

主题

2304

帖子

183

积分

中将

Rank: 2

UID
132602
积分
183
冰币
1969
威望
0
发表于 2012-10-24 12:07:42 | 显示全部楼层
冰冰影视音质好响亮!
回复 支持 反对

使用道具 举报

2

主题

137

帖子

29

积分

大兵

Rank: 1

UID
38311
积分
29
冰币
744
威望
-41
发表于 2012-11-9 18:18:22 | 显示全部楼层
哈哈哈哈哈
回复 支持 反对

使用道具 举报

1

主题

341

帖子

21

积分

大兵

Rank: 1

UID
74398
积分
21
冰币
144
威望
0
发表于 2012-11-11 20:59:46 | 显示全部楼层
经典老歌,支持
回复 支持 反对

使用道具 举报

0

主题

109

帖子

19

积分

大兵

Rank: 1

UID
141425
积分
19
冰币
-366
威望
0
发表于 2012-12-13 13:09:52 来自手机 | 显示全部楼层
谢谢楼主的分享
回复 支持 反对

使用道具 举报

本版积分规则

手机版|小黑屋|冰冰网 ( 粤ICP备10024810号-1 )

GMT+8, 2018-4-25 02:17

Powered by www.discuz.net Discuz! X3.4

© 2001-2012 Comsenz Inc sitemap a67 s80


本站影视音乐资源来自互联网免费共享,仅供交流学习之用,版权归作者本人所有,如果侵犯了您的权益,请通知我们,邮箱地址mail@aapig.com
快速回复 返回顶部 返回列表