手机冰冰网

 找回密码
 开放注册,禁止乱回复
搜索
查看: 527|回复: 3

[大陆] 杨钰莹《你看蓝蓝的天》[DVD-mpg][百度网盘][KTV/双音轨]

[复制链接]
 成长值: 1480

2万

主题

2万

帖子

872万

积分

参谋

高清手机影视爱好者

Rank: 8Rank: 8

UID
3
积分
8723662
冰币
272046
威望
7491

顶帖达人精帖强人君临天下大富之家捐助会员宣传高手至尊贡献荣誉勋章绿钻勋章天尊大将军制作组版主网站编辑超级斑竹蓝钻勋章

发表于 2014-3-11 16:42:26 | 显示全部楼层 |阅读模式 |        |
www.aapig.com.cn杨钰莹《你看蓝蓝的天》.VOB
    Format : MPEG-PS
    File size : 203 MiB
    Duration : 4mn 31s
    Overall bit rate mode : Variable
    Overall bit rate : 6 289 Kbps
  Video #224
    ID : 224 (0xE0)
    Format : MPEG Video
    Format version : Version 2
    Format profile : Main@Main
    Format settings, BVOP : Yes
    Format settings, Matrix : Custom
    Format settings, GOP : M=2, N=10
    Duration : 4mn 31s
    Bit rate mode : Variable
    Bit rate : 5 396 Kbps
    Maximum bit rate : 8 000 Kbps
    Width : 720 pixels
    Height : 576 pixels
    Display aspect ratio : 4:3
    Frame rate : 25.000 fps
    Standard : PAL
    Color space : YUV
    Chroma subsampling : 4:2:0
    Bit depth : 8 bits
    Scan type : Interlaced
    Scan order : Top Field First
    Compression mode : Lossy
    Bits/(Pixel*Frame) : 0.520
    Time code of first frame : 00:22:46:24
    Time code source : Group of pictures header
    Stream size : 174 MiB (86%)
  Audio #189-128
    ID : 189 (0xBD)-128 (0x80)
    Format : AC-3
    Format/Info : Audio Coding 3
    Mode extension : CM (complete main)
    Format settings, Endianness : Big
    Muxing mode : DVD-Video
    Duration : 4mn 31s
    Bit rate mode : Constant
    Bit rate : 384 Kbps
    Channel count : 6 channels
    Channel positions : Front: L C R, Side: L R, LFE
    Sampling rate : 48.0 KHz
    Bit depth : 16 bits
    Compression mode : Lossy
    Delay relative to video : -264ms
    Stream size : 12.4 MiB (6%)
  Audio #189-129
    ID : 189 (0xBD)-129 (0x81)
    Format : AC-3
    Format/Info : Audio Coding 3
    Mode extension : CM (complete main)
    Format settings, Endianness : Big
    Muxing mode : DVD-Video
    Duration : 4mn 31s
    Bit rate mode : Constant
    Bit rate : 384 Kbps
    Channel count : 6 channels
    Channel positions : Front: L C R, Side: L R, LFE
    Sampling rate : 48.0 KHz
    Bit depth : 16 bits
    Compression mode : Lossy
    Delay relative to video : -264ms
    Stream size : 12.4 MiB (6%)
  Menu





购买主题 已有 2 人购买  本主题需向作者支付 5 冰币 才能浏览, 赚冰币 | 捐助会员免币购买直接查看
论坛每个月服务器的维护开支让管理员压力山大
有心捐助论坛的会员行动起来呀 →点击这里捐助并成为VIP
有疑问的会员请到→《会员咨询区》发帖咨询

如果你喜欢冰冰网,请→推荐AAPiG给您身边的同学好友
头像被屏蔽

3

主题

1902

帖子

206

积分

禁止发言

UID
328226
积分
206
冰币
3047
威望
-81
发表于 2014-12-6 12:20:09 | 显示全部楼层
提示: 作者被禁止或删除 内容自动屏蔽
回复 支持 反对

使用道具 举报

0

主题

756

帖子

13

积分

大兵

Rank: 1

UID
53292
积分
13
冰币
3
威望
0
发表于 2015-4-8 12:45:25 | 显示全部楼层
谢谢分享
回复 支持 反对

使用道具 举报

1

主题

165

帖子

112

积分

中将

Rank: 2

UID
420286
积分
112
冰币
1196
威望
0
发表于 2016-11-16 15:40:20 | 显示全部楼层
冰冰高清手机电影下载›每日签到
回复 支持 反对

使用道具 举报

本版积分规则

手机版|小黑屋|冰冰网 ( 粤ICP备10024810号-1 )

GMT+8, 2018-4-23 13:50

Powered by www.discuz.net Discuz! X3.4

© 2001-2012 Comsenz Inc sitemap a67 s80


本站影视音乐资源来自互联网免费共享,仅供交流学习之用,版权归作者本人所有,如果侵犯了您的权益,请通知我们,邮箱地址mail@aapig.com
快速回复 返回顶部 返回列表