冰冰网

 找回密码
 开放注册,禁止乱回复
搜索
查看: 9702|回复: 98

[短片] 索尼F55全球首部4K分辨率测试样片4096 X 2160P[百度网盘][360云盘]

  [复制链接]
 成长值: 1520

2万

主题

2万

帖子

872万

积分

参谋

高清手机影视爱好者

Rank: 8Rank: 8

UID
3
积分
8723708
冰币
272540
威望
7491

顶帖达人精帖强人君临天下大富之家捐助会员宣传高手至尊贡献荣誉勋章绿钻勋章天尊大将军制作组版主网站编辑超级斑竹蓝钻勋章

发表于 2014-3-31 23:12:38 | 显示全部楼层 |阅读模式 |        |
    Format : MPEG-4
    Format profile : Base Media / Version 2
    Codec ID : mp42
    File size : 116 MiB
    Duration : 1mn 19s
    Overall bit rate mode : Variable
    Overall bit rate : 12.2 Mbps
    Encoded date : UTC 2012-11-25 18:03:18
    Tagged date : UTC 2012-11-25 18:03:18
    gsst : 0
    gstd : 79921
    gssd : B4A7D0663HH1353994127714032
    gshh : o-o---preferred---sn-5uaezner---v18---lscache3.c.youtube.com
  Video #1
    ID : 1
    Format : AVC
    Format/Info : Advanced Video Codec
    Format profile : High@L5.1
    Format settings, CABAC : No
    Format settings, ReFrames : 1 frame
    Format settings, GOP : M=1, N=45
    Codec ID : avc1
    Codec ID/Info : Advanced Video Coding
    Duration : 1mn 19s
    Bit rate : 12.0 Mbps
    Maximum bit rate : 18.1 Mbps
    Width : 4 096 pixels
    Height : 2 160 pixels
    Display aspect ratio : 1.896
    Frame rate mode : Constant
    Frame rate : 23.976 fps
    Color space : YUV
    Chroma subsampling : 4:2:0
    Bit depth : 8 bits
    Scan type : Progressive
    Bits/(Pixel*Frame) : 0.057
    Stream size : 114 MiB (98%)
    Tagged date : UTC 2012-11-25 18:03:18
  Audio #2
    ID : 2
    Format : AAC
    Format/Info : Advanced Audio Codec
    Format profile : LC
    Codec ID : 40
    Duration : 1mn 19s
    Bit rate mode : Variable
    Bit rate : 192 Kbps
    Maximum bit rate : 202 Kbps
    Channel count : 2 channels
    Channel positions : Front: L R
    Sampling rate : 44.1 KHz
    Compression mode : Lossy
    Stream size : 1.83 MiB (2%)
    Title : IsoMedia File Produced by Google, 5-11-2011
    Encoded date : UTC 2012-11-25 18:03:18
    Tagged date : UTC 2012-11-25 18:03:18
索尼F55全球首部4K分辨率测试样片.mp4_20140331_225530.168.jpg



360云盘下载地址
游客,如果您要查看本帖隐藏内容请回复,   如果您想享受免回复免冰币无广告权限→→请捐助论坛

百度网盘下载地址
游客,如果您要查看本帖隐藏内容请回复,   如果您想享受免回复免冰币无广告权限→→请捐助论坛


论坛每个月服务器的维护开支让管理员压力山大
有心捐助论坛的会员行动起来呀 →点击这里捐助并成为VIP
有疑问的会员请到→《会员咨询区》发帖咨询

如果你喜欢冰冰网,请→推荐AAPiG给您身边的同学好友

1

主题

335

帖子

49

积分

小将

Rank: 2

UID
297340
积分
49
冰币
492
威望
0
发表于 2014-4-1 11:47:22 | 显示全部楼层
收藏了谢谢
回复 支持 反对

使用道具 举报

1

主题

1243

帖子

384

积分

部将

Rank: 3Rank: 3

UID
150348
积分
384
冰币
3829
威望
0
发表于 2014-4-3 09:23:40 | 显示全部楼层
谢谢分享
快乐每一天!
回复 支持 反对

使用道具 举报

1

主题

1471

帖子

1370

积分

大将

Rank: 4

UID
291770
积分
1370
冰币
14741
威望
-2
发表于 2014-4-3 09:56:13 | 显示全部楼层
Format : MPEG-4
回复 支持 反对

使用道具 举报

0

主题

410

帖子

37

积分

小将

Rank: 2

UID
51019
积分
37
冰币
377
威望
0
发表于 2014-4-3 11:03:17 | 显示全部楼层
顶顶非常喜欢
回复 支持 反对

使用道具 举报

1

主题

25

帖子

-30

积分

平民

UID
299809
积分
-30
冰币
-332
威望
0
发表于 2014-4-4 12:48:27 | 显示全部楼层
看看到底什么样子的
回复 支持 反对

使用道具 举报

1

主题

16

帖子

-43

积分

平民

UID
300096
积分
-43
冰币
-358
威望
0
发表于 2014-4-5 22:58:52 | 显示全部楼层
收藏了,谢谢
回复 支持 反对

使用道具 举报

1

主题

16

帖子

-32

积分

平民

UID
300128
积分
-32
冰币
-354
威望
0
发表于 2014-4-6 01:24:26 | 显示全部楼层
收藏了谢谢
回复 支持 反对

使用道具 举报

1

主题

98

帖子

54

积分

小将

Rank: 2

UID
301136
积分
54
冰币
567
威望
0
发表于 2014-4-12 14:57:36 | 显示全部楼层
GOOD 3Q LZ
回复 支持 反对

使用道具 举报

1

主题

8

帖子

-32

积分

平民

UID
303103
积分
-32
冰币
-361
威望
0
发表于 2014-4-25 17:17:55 | 显示全部楼层
谢谢分享
回复 支持 反对

使用道具 举报

本版积分规则

手机版|小黑屋|冰冰网 ( 粤ICP备10024810号-1 )

GMT+8, 2018-4-27 07:04

Powered by www.discuz.net Discuz! X3.4

© 2001-2012 Comsenz Inc sitemap a67 s80


本站影视音乐资源来自互联网免费共享,仅供交流学习之用,版权归作者本人所有,如果侵犯了您的权益,请通知我们,邮箱地址mail@aapig.com
快速回复 返回顶部 返回列表