手机冰冰网

 找回密码
 开放注册,禁止乱回复
搜索
查看: 7255|回复: 180

[韩日] 美女天团After School管舞MV《First Love(初恋)》(4K)2160P/MP4下载

  [复制链接]
 成长值: 1470

2万

主题

2万

帖子

872万

积分

参谋

高清手机影视爱好者

Rank: 8Rank: 8

UID
3
积分
8723657
冰币
271987
威望
7491

顶帖达人精帖强人君临天下大富之家捐助会员宣传高手至尊贡献荣誉勋章绿钻勋章天尊大将军制作组版主网站编辑超级斑竹蓝钻勋章

发表于 2014-4-14 13:51:48 | 显示全部楼层 |阅读模式 |        |


    Format : MPEG-4
    Format profile : Base Media / Version 2
    Codec ID : mp42
    File size : 717 MiB
    Duration : 3mn 40s
    Overall bit rate mode : Variable
    Overall bit rate : 27.3 Mbps
    Encoded date : UTC 2013-06-22 03:43:37
    Tagged date : UTC 2013-06-22 03:43:37
    gsst : 0
    gstd : 220635
    gssd : BADC20781HH1372869270967510
    gshh : r1---sn-p5q7ynel.c.youtube.com
  Video #1
    ID : 1
    Format : AVC
    Format/Info : Advanced Video Codec
    Format profile : High@L5.1
    Format settings, CABAC : No
    Format settings, ReFrames : 1 frame
    Codec ID : avc1
    Codec ID/Info : Advanced Video Coding
    Duration : 3mn 40s
    Bit rate : 27.1 Mbps
    Maximum bit rate : 50.8 Mbps
    Width : 3 840 pixels
    Height : 2 160 pixels
    Display aspect ratio : 16:9
    Frame rate mode : Variable
    Frame rate : 30.000 fps
    Minimum frame rate : 29.970 fps
    Maximum frame rate : 54.446 fps
    Color space : YUV
    Chroma subsampling : 4:2:0
    Bit depth : 8 bits
    Scan type : Progressive
    Bits/(Pixel*Frame) : 0.109
    Stream size : 712 MiB (99%)
    Tagged date : UTC 2013-06-22 03:44:57
  Audio #2
    ID : 2
    Format : AAC
    Format/Info : Advanced Audio Codec
    Format profile : LC
    Codec ID : 40
    Duration : 3mn 40s
    Bit rate mode : Variable
    Bit rate : 192 Kbps
    Maximum bit rate : 201 Kbps
    Channel count : 2 channels
    Channel positions : Front: L R
    Sampling rate : 44.1 KHz
    Compression mode : Lossy
    Stream size : 5.05 MiB (1%)
    Title : IsoMedia File Produced by Google, 5-11-2011
    Encoded date : UTC 2013-06-22 03:44:39
    Tagged date : UTC 2013-06-22 03:44:57


[4K]AFTER SCHOOL - First Love(2160P).mp4.jpg


百度网盘下载地址
游客,如果您要查看本帖隐藏内容请回复,   如果您想享受免回复免冰币无广告权限→→请捐助论坛

360云盘下载地址
游客,如果您要查看本帖隐藏内容请回复,   如果您想享受免回复免冰币无广告权限→→请捐助论坛
论坛每个月服务器的维护开支让管理员压力山大
有心捐助论坛的会员行动起来呀 →点击这里捐助并成为VIP
有疑问的会员请到→《会员咨询区》发帖咨询

如果你喜欢冰冰网,请→推荐AAPiG给您身边的同学好友

2

主题

246

帖子

122

积分

中将

Rank: 2

UID
22031
积分
122
冰币
1292
威望
1
发表于 2014-4-15 01:16:54 | 显示全部楼层
支持冰冰網~~~~
回复 支持 反对

使用道具 举报

0

主题

718

帖子

61

积分

小将

Rank: 2

UID
36264
积分
61
冰币
651
威望
-1
发表于 2014-4-15 17:46:29 | 显示全部楼层
支持冰冰網~~~~
回复 支持 反对

使用道具 举报

0

主题

139

帖子

37

积分

小将

Rank: 2

UID
31883
积分
37
冰币
395
威望
0
发表于 2014-4-17 20:53:44 | 显示全部楼层
4k到底什么效果,,,
回复 支持 反对

使用道具 举报

1

主题

25

帖子

-29

积分

平民

UID
301960
积分
-29
冰币
-328
威望
0
发表于 2014-4-19 07:26:42 | 显示全部楼层
的顶顶顶顶顶顶顶顶顶顶
回复 支持 反对

使用道具 举报

0

主题

258

帖子

24

积分

大兵

Rank: 1

UID
51979
积分
24
冰币
235
威望
0
发表于 2014-4-19 08:21:41 | 显示全部楼层

这个不错  谢谢楼主分享
回复 支持 反对

使用道具 举报

1

主题

5

帖子

-42

积分

平民

UID
302525
积分
-42
冰币
-348
威望
0
发表于 2014-4-21 08:24:46 | 显示全部楼层
美女天团After School管舞MV
回复 支持 反对

使用道具 举报

1

主题

33

帖子

-40

积分

平民

UID
297873
积分
-40
冰币
-336
威望
0
发表于 2014-4-21 13:34:14 | 显示全部楼层
看看截图怎么样啊
回复 支持 反对

使用道具 举报

1

主题

4

帖子

-33

积分

平民

UID
134555
积分
-33
冰币
-365
威望
0
发表于 2014-4-23 17:37:35 | 显示全部楼层
学习分子 谢谢分享!^O^。。。。。。。。。。。。。。。。
回复 支持 反对

使用道具 举报

1

主题

4

帖子

-43

积分

平民

UID
302931
积分
-43
冰币
-361
威望
0
发表于 2014-4-23 19:01:40 | 显示全部楼层
感谢分享,楼主辛苦了!
回复 支持 反对

使用道具 举报

本版积分规则

手机版|小黑屋|冰冰网 ( 粤ICP备10024810号-1 )

GMT+8, 2018-4-22 10:44

Powered by www.discuz.net Discuz! X3.4

© 2001-2012 Comsenz Inc sitemap a67 s80


本站影视音乐资源来自互联网免费共享,仅供交流学习之用,版权归作者本人所有,如果侵犯了您的权益,请通知我们,邮箱地址mail@aapig.com
快速回复 返回顶部 返回列表