手机冰冰网

 找回密码
 开放注册,禁止乱回复
搜索
查看: 6253|回复: 198

[短片] Samsung三星4K演示片:无与伦比的小村庄(瑞士Lovely Swiss)2160P[百度网盘]

  [复制链接]
 成长值: 1480

2万

主题

2万

帖子

872万

积分

参谋

高清手机影视爱好者

Rank: 8Rank: 8

UID
3
积分
8723662
冰币
272038
威望
7491

顶帖达人精帖强人君临天下大富之家捐助会员宣传高手至尊贡献荣誉勋章绿钻勋章天尊大将军制作组版主网站编辑超级斑竹蓝钻勋章

发表于 2014-5-16 21:16:32 | 显示全部楼层 |阅读模式 |        |
Format                         : MPEG-TS
File size                      : 1.33 GiB
Duration                       : 3mn 41s
Overall bit rate mode          : Constant
Overall bit rate               : 51.5 Mbps

Video
ID                             : 257 (0x101)
Menu ID                        : 1 (0x1)
Format                         : HEVC
Format/Info                    : High Efficiency Video Coding
Codec ID                       : 36
Duration                       : 3mn 40s
Bit rate                       : 48.8 Mbps
Stream size                    : 1.26 GiB (94%)
URL                             :4K123.Com

Audio
ID                             : 258 (0x102)
Menu ID                        : 1 (0x1)
Format                         : AAC
Format/Info                    : Advanced Audio Codec
Format version                 : Version 4
Format profile                 : LC
Muxing mode                    : ADTS
Codec ID                       : 15
Duration                       : 3mn 40s
Bit rate mode                  : Variable
Bit rate                       : 126 Kbps
Channel(s)                     : 2 channels
Channel positions              : Front: L R
Sampling rate                  : 48.0 KHz
Compression mode               : Lossy
Stream size                    : 3.31 MiB (0%)


145350uaaamkhw1o14knmw.jpg
145349klzj4ef999u4g5u6.jpg


百度网盘下载地址
游客,如果您要查看本帖隐藏内容请回复,   如果您想享受免回复免冰币无广告权限→→请捐助论坛
论坛每个月服务器的维护开支让管理员压力山大
有心捐助论坛的会员行动起来呀 →点击这里捐助并成为VIP
有疑问的会员请到→《会员咨询区》发帖咨询

如果你喜欢冰冰网,请→推荐AAPiG给您身边的同学好友

1

主题

396

帖子

326

积分

部将

Rank: 3Rank: 3

UID
307183
积分
326
冰币
3470
威望
0
发表于 2014-5-16 22:58:23 | 显示全部楼层
谢谢分享
回复 支持 反对

使用道具 举报

1

主题

273

帖子

87

积分

小将

Rank: 2

UID
302821
积分
87
冰币
913
威望
0
发表于 2014-5-17 00:42:36 | 显示全部楼层
感谢分享
回复 支持 反对

使用道具 举报

1

主题

1550

帖子

308

积分

部将

Rank: 3Rank: 3

UID
252427
积分
308
冰币
3329
威望
-18
发表于 2014-5-17 18:44:36 | 显示全部楼层
谢谢分享
回复 支持 反对

使用道具 举报

1

主题

44

帖子

-28

积分

平民

UID
306182
积分
-28
冰币
-317
威望
0
发表于 2014-5-17 19:17:04 | 显示全部楼层
vvvvvvvvvvvvvvvvvvvv
回复 支持 反对

使用道具 举报

1

主题

283

帖子

70

积分

小将

Rank: 2

UID
307031
积分
70
冰币
721
威望
0
发表于 2014-5-19 22:54:39 | 显示全部楼层
右下角广告Tm太讨厌了
回复 支持 反对

使用道具 举报

1

主题

145

帖子

21

积分

大兵

Rank: 1

UID
52863
积分
21
冰币
215
威望
0
发表于 2014-5-20 12:44:13 | 显示全部楼层
快快快快快快快快快快快顶一下
回复 支持 反对

使用道具 举报

1

主题

235

帖子

-5

积分

民兵

UID
76421
积分
-5
冰币
-112
威望
0
发表于 2014-5-20 23:19:34 | 显示全部楼层
楼主辛苦
回复 支持 反对

使用道具 举报

1

主题

9

帖子

-32

积分

平民

UID
228263
积分
-32
冰币
-360
威望
0
发表于 2014-5-24 02:20:57 | 显示全部楼层
世外桃源
回复 支持 反对

使用道具 举报

0

主题

464

帖子

49

积分

小将

Rank: 2

UID
41462
积分
49
冰币
461
威望
0
发表于 2014-5-24 15:00:15 | 显示全部楼层
感谢楼主的无私分享!
回复 支持 反对

使用道具 举报

本版积分规则

手机版|小黑屋|冰冰网 ( 粤ICP备10024810号-1 )

GMT+8, 2018-4-23 12:01

Powered by www.discuz.net Discuz! X3.4

© 2001-2012 Comsenz Inc sitemap a67 s80


本站影视音乐资源来自互联网免费共享,仅供交流学习之用,版权归作者本人所有,如果侵犯了您的权益,请通知我们,邮箱地址mail@aapig.com
快速回复 返回顶部 返回列表