手机冰冰网

 找回密码
 开放注册,禁止乱回复
搜索
查看: 720|回复: 4

[短片] 南美洲野生动物奇观 Wildlife Wonders of South America 6.15GB

[复制链接]
 成长值: 3410

7290

主题

7461

帖子

49万

积分

参谋

非凡-feifang

Rank: 8Rank: 8

UID
2
积分
495589
冰币
21643
威望
237

管理员

发表于 2017-6-30 16:48:53 | 显示全部楼层 |阅读模式 |        |






General
Unique ID : 189004430794658430912497311968647793442 (0x8E30EDE5E119E35B90AD8318E8CD4B22)
Complete name : Wildlife Wonders of South America  4K RELAXATION VIDEO Chile & Bolivia (Nature Sounds Only),Мастер5.mkv
Format : Matroska
Format version : Version 4 / Version 2
File size : 6.15 GiB
Duration : 1 h 0 min
Overall bit rate : 14.5 Mbps
Movie name : Wildlife Wonders of South America  4K RELAXATION VIDEO Chile & Bolivia (Nature Sounds Only),Мастер5
Encoded date : UTC 2017-06-06 17:51:46
Writing application : mkvmerge v8.1.0 ('Psychedelic Postcard') 32bit
Writing library : libebml v1.3.1 + libmatroska v1.4.2

Video
ID : 1
Format : AVC
Format/Info : Advanced Video Codec
Format profile : High@L5.1
Format settings, CABAC : No
Format settings, ReFrames : 2 frames
Codec ID : V_MPEG4/ISO/AVC
Duration : 1 h 0 min
Bit rate : 14.4 Mbps
Width : 3840 pixels
Height : 2160 pixels
Display aspect ratio : 16:9
Frame rate mode : Constant
Frame rate : 23.976 (24000/1001) FPS
Color space : YUV
Chroma subsampling : 4:2:0
Bit depth : 8 bits
Scan type : Progressive
Bits/(Pixel*Frame) : 0.072
Stream size : 6.10 GiB (99%)
Title : Wildlife Wonders of South America  4K RELAXATION VIDEO Chile & Bolivia (Nature Sounds Only),Мастер5
Default : Yes
Forced : No
Color range : Limited
Color primaries : BT.709
Transfer characteristics : BT.709
Matrix coefficients : BT.709

Audio
ID : 2
Format : AAC
Format/Info : Advanced Audio Codec
Format profile : LC
Codec ID : A_AAC
Duration : 1 h 0 min
Bit rate : 126 kbps
Channel(s) : 2 channels
Channel positions : Front: L R
Sampling rate : 44.1 kHz
Frame rate : 43.066 FPS (1024 spf)
Compression mode : Lossy
Stream size : 54.6 MiB (1%)
Default : Yes
Forced : No


种子百度云下载:
http://pan.baidu.com/s/1gf25BMz 密码:2erw

种子本地下载:
Wildlife Wonders of South America 4K RELAXATION VIDEO Chile & Bolivia (Nature.torrent (124.34 KB, 下载次数: 8, 售价: 1 冰币)
本人发布的资源如果发现失效,可以私信联系我,能修复的我尽量修复。

1

主题

4586

帖子

595

积分

大将

Rank: 4

UID
365067
积分
595
冰币
6482
威望
0
发表于 2018-1-18 07:21:07 | 显示全部楼层
谢谢搂主无私奉献
回复 支持 反对

使用道具 举报

1

主题

4586

帖子

595

积分

大将

Rank: 4

UID
365067
积分
595
冰币
6482
威望
0
发表于 2018-3-7 06:29:39 | 显示全部楼层

谢谢搂主无私奉献
回复 支持 反对

使用道具 举报

本版积分规则

手机版|小黑屋|冰冰网 ( 粤ICP备10024810号-1 )

GMT+8, 2018-4-20 13:04

Powered by www.discuz.net Discuz! X3.4

© 2001-2012 Comsenz Inc sitemap a67 s80


本站影视音乐资源来自互联网免费共享,仅供交流学习之用,版权归作者本人所有,如果侵犯了您的权益,请通知我们,邮箱地址mail@aapig.com
快速回复 返回顶部 返回列表