手机冰冰网

 找回密码
 开放注册,禁止乱回复
搜索
查看: 189|回复: 12

[华语] 空天猎 Sky.Hunter.2017.1080p.BluRay.x264-WiKi 9.73GB

[复制链接]
 成长值: 3420

7296

主题

7467

帖子

49万

积分

参谋

非凡-feifang

Rank: 8Rank: 8

UID
2
积分
495592
冰币
21655
威望
237

管理员

发表于 2018-4-8 19:22:17 | 显示全部楼层 |阅读模式 |        |

◎中文译名 霸天狼
◎片  名 空天猎
◎日  期 2017
◎产  地 中国大陆
◎影片类型 剧情/动作/战争
◎对  白 汉语普通话
◎上映日期 2017-09-29(中国大陆)
◎IMDb评分  5.4/10 from 240 users
◎IMDB链接  www.aapig.com.cn www.imdb.com/title/tt6908536/
◎豆瓣评分 5.1/10 from 43,783 users
◎豆瓣链接 https://movie.douban.com/subject/26753020/
◎影片时长 115分钟
◎影片导演 李晨 Chen Li
◎主要演员 李晨 Chen Li
      范冰冰 Bingbing Fan
      王千源 Qianyuan Wang
      李佳航 Jiahang Li
      赵达 Da Zhao
      李晨浩 Leon Lee
      郭洺宇 Mingyu Guo
      叶浏 Liu Ye
      陆思宇 Siyu Lu
      托马尔·奥兹 Tomer Oz
      吴秀波 Xiubo Wu
      邓超 Chao Deng
      王学圻 Xueqi Wang

◎资源介绍

  一场空天战场的猎杀传奇。霸天狼,一支神秘的空军顶级团队,每一名飞行员都是“金头盔” 级别的王牌飞行员,吴迪(李晨 饰)、亚莉(范冰冰 饰)、巴图(郭洺宇 饰)、高原(李晨浩 饰)通过层层考核,成为了霸天狼秘密基地的一员。可谁也没有想到,吴迪的好友浩辰(李佳航 饰)却在任务中陷入一场境外战乱的阴谋。更大的威胁接踵而至,恐怖势力突 发其来的导弹危机和人质危机,空前地挑战着中国空军的实战能力!十万火急之下,最新式 的中国战机和最顶级的飞行员,与掌握导弹密码和先进战机的敌人,在境外天空展开一场生死对决......


Video
ID                                       : 1
Format                                   : AVC
Format/Info                              : Advanced Video Codec
Format profile                           : High@L4.1
Format settings                          : CABAC / 5 Ref Frames
Format settings, CABAC                   : Yes
Format settings, ReFrames                : 5 frames
Codec ID                                 : V_MPEG4/ISO/AVC
Duration                                 : 1 h 55 min
Bit rate                                 : 11.5 Mb/s
Width                                    : 1 920 pixels
Height                                   : 802 pixels
Display aspect ratio                     : 2.40:1
Frame rate mode                          : Constant
Frame rate                               : 24.000 FPS
Color space                              : YUV
Chroma subsampling                       : 4:2:0
Bit depth                                : 8 bits
Scan type                                : Progressive
Bits/(Pixel*Frame)                       : 0.311
Stream size                              : 9.21 GiB (95%)
Writing library                          : x264 core 129 r2245+704+36 8e61944 tMod+MixAQ [8-bit@4:2:0 X86_64]
Encoding settings                        : cabac=1 / ref=5 / deblock=1:-3:-3 / analyse=0x3:0x133 / me=umh / subme=11 / psy=1 / fade_compensate=0.00 / psy_rd=1.05:0.10 / mixed_ref=1 / me_range=64 / chroma_me=1 / trellis=2 / 8x8dct=1 / cqm=0 / deadzone=21,11 / fast_pskip=0 / chroma_qp_offset=-3 / threads=18 / lookahead_threads=3 / sliced_threads=0 / nr=0 / decimate=0 / interlaced=0 / bluray_compat=0 / constrained_intra=0 / fgo=0 / bframes=10 / b_pyramid=2 / b_adapt=2 / b_bias=0 / direct=3 / weightb=1 / open_gop=0 / weightp=2 / keyint=250 / keyint_min=24 / scenecut=40 / intra_refresh=0 / rc=2pass / mbtree=0 / bitrate=11488 / ratetol=1.0 / qcomp=0.70 / qpmin=0 / qpmax=69 / qpstep=4 / cplxblur=20.0 / qblur=0.5 / ip_ratio=1.40 / pb_ratio=1.30 / aq=1 / aq-strength=0.85 / aq-sensitivity=10.00 / aq-ifactor=1.00 / aq-pfactor=1.00 / aq-bfactor=1.00 / aq2=0
Language                                 : Chinese
Default                                  : Yes
Forced                                   : No

Audio
ID                                       : 2
Format                                   : AC-3
Format/Info                              : Audio Coding 3
Codec ID                                 : A_AC3
Duration                                 : 1 h 55 min
Bit rate mode                            : Constant
Bit rate                                 : 640 kb/s
Channel(s)                               : 6 channels
Channel positions                        : Front: L C R, Side: L R, LFE
Sampling rate                            : 48.0 kHz
Frame rate                               : 31.250 FPS (1536 SPF)
Bit depth                                : 16 bits
Compression mode                         : Lossy
Stream size                              : 527 MiB (5%)
Language                                 : Chinese
Service kind                             : Complete Main
Default                                  : Yes
Forced                                   : No

Text #1
ID                                       : 3
Format                                   : UTF-8
Codec ID                                 : S_TEXT/UTF8
Codec ID/Info                            : UTF-8 Plain Text
Duration                                 : 1 h 43 min
Bit rate                                 : 35 b/s
Count of elements                        : 1261
Stream size                              : 27.2 KiB (0%)
Title                                    : Simplified
Language                                 : Chinese
Default                                  : Yes
Forced                                   : No

Text #2
ID                                       : 4
Format                                   : UTF-8
Codec ID                                 : S_TEXT/UTF8
Codec ID/Info                            : UTF-8 Plain Text
Duration                                 : 1 h 43 min
Bit rate                                 : 35 b/s
Count of elements                        : 1261
Stream size                              : 27.2 KiB (0%)
Title                                    : Traditional
Language                                 : Chinese
Default                                  : No
Forced                                   : No

Menu
00:00:00.000                             : en:00:00:00.000
00:06:12.750                             : en:00:06:12.750
00:11:53.458                             : en:00:11:53.458
00:16:20.458                             : en:00:16:20.458
00:21:21.833                             : en:00:21:21.833
00:26:30.875                             : en:00:26:30.875
00:33:06.625                             : en:00:33:06.625
00:37:34.000                             : en:00:37:34.000
00:43:19.125                             : en:00:43:19.125
00:50:11.208                             : en:00:50:11.208
00:57:22.625                             : en:00:57:22.625
01:01:42.125                             : en:01:01:42.125
01:06:19.250                             : en:01:06:19.250
01:11:45.750                             : en:01:11:45.750
01:17:08.083                             : en:01:17:08.083
01:22:43.375                             : en:01:22:43.375
01:26:37.166                             : en:01:26:37.166
01:34:41.500                             : en:01:34:41.500
01:40:40.500                             : en:01:40:40.500
01:46:36.000                             : en:01:46:36.000






种子百度云下载:
https://pan.baidu.com/s/1ZRhEQZHhssT-e6-Ddw_MEQ 密码: 1mwu

种子本地下载:
Sky.Hunter.2017.1080p.BluRay.x264-WiKi.torrent (97.78 KB, 下载次数: 108)
本人发布的资源如果发现失效,可以私信联系我,能修复的我尽量修复。

0

主题

3696

帖子

380

积分

部将

Rank: 3Rank: 3

UID
531243
积分
380
冰币
4132
威望
0
发表于 2018-4-8 19:41:39 | 显示全部楼层
谢谢版主!幸苦啦!
回复 支持 反对

使用道具 举报

1

主题

1412

帖子

1953

积分

大将

Rank: 4

UID
288105
积分
1953
冰币
21179
威望
-2
发表于 2018-4-8 20:15:54 | 显示全部楼层
这部片不错,谢谢楼主
回复 支持 反对

使用道具 举报

0

主题

3696

帖子

380

积分

部将

Rank: 3Rank: 3

UID
531243
积分
380
冰币
4132
威望
0
发表于 2018-4-9 16:48:55 | 显示全部楼层
谢谢版主!幸苦啦!
回复 支持 反对

使用道具 举报

0

主题

113

帖子

-1

积分

民兵

UID
546712
积分
-1
冰币
-16
威望
0
发表于 2018-4-10 20:31:27 | 显示全部楼层
谢谢版主!幸苦啦!
回复 支持 反对

使用道具 举报

0

主题

795

帖子

766

积分

大将

Rank: 4

UID
492001
积分
766
冰币
8321
威望
0
发表于 2018-4-11 11:41:53 | 显示全部楼层
谢谢版主!幸苦啦!
回复 支持 反对

使用道具 举报

0

主题

3696

帖子

380

积分

部将

Rank: 3Rank: 3

UID
531243
积分
380
冰币
4132
威望
0
发表于 2018-4-11 20:35:11 | 显示全部楼层
谢谢版主!幸苦啦!
回复 支持 反对

使用道具 举报

0

主题

27

帖子

-28

积分

平民

UID
542674
积分
-28
冰币
-318
威望
0
发表于 2018-4-11 21:20:19 | 显示全部楼层
看看有多烂?
回复 支持 反对

使用道具 举报

0

主题

117

帖子

-11

积分

民兵

UID
353532
积分
-11
冰币
-173
威望
0
发表于 2018-4-13 20:07:13 | 显示全部楼层
谢谢版主!幸苦啦!
回复 支持 反对

使用道具 举报

本版积分规则

手机版|小黑屋|冰冰网 ( 粤ICP备10024810号-1 )

GMT+8, 2018-4-21 09:59

Powered by www.discuz.net Discuz! X3.4

© 2001-2012 Comsenz Inc sitemap a67 s80


本站影视音乐资源来自互联网免费共享,仅供交流学习之用,版权归作者本人所有,如果侵犯了您的权益,请通知我们,邮箱地址mail@aapig.com
快速回复 返回顶部 返回列表