手机冰冰网

 找回密码
 开放注册,禁止乱回复
搜索
查看: 94|回复: 3

[欧美] 死产儿/夭折 Still.Born.2017.1080p.WEB-DL.DD5.1.H264-FGT 3GB

[复制链接]
 成长值: 3410

7290

主题

7461

帖子

49万

积分

参谋

非凡-feifang

Rank: 8Rank: 8

UID
2
积分
495589
冰币
21643
威望
237

管理员

发表于 2018-4-11 20:58:22 | 显示全部楼层 |阅读模式 |        |
1.jpg
◎中文译名 死产儿/夭折
◎片  名 Still/Born
◎日  期 2017
◎产  地 加拿大
◎影片类型 惊悚/恐怖
◎对  白 英语
◎上映日期 2017-04-29(The Overlook Film Festival)
◎影片时长 97分钟
◎影片导演 布兰登·克里斯坦森
◎主要演员 克里斯蒂·柏克 Christie Burke
      杰西·莫斯 Jesse Moss
      Rebecca Olson
      迈克尔·艾恩塞德 Michael Ironside
      Jenn Griffin
      希拉·麦卡锡 Sheila McCarthy
      肖恩·罗格森 Sean Rogerson
      Dylan Playfair
      Grace Christensen

◎资源介绍

  影片讲述的是一位新妈妈 Mary (克里斯蒂·柏克 饰)保护新生儿 Adam(Grace Christensen 饰)的故事。Mary 生了一对双胞胎,但其中只有 Adam 存活了下来。在照顾 Adam 的过程中她疯狂地认为有某种超自然的实体在不惜任何代价地把 Adam 从她身边带走。

Video
ID                                       : 1
Format                                   : AVC
Format/Info                              : Advanced Video Codec
Format profile                           : High@L4
Format settings                          : CABAC / 5 Ref Frames
Format settings, CABAC                   : Yes
Format settings, ReFrames                : 5 frames
Codec ID                                 : V_MPEG4/ISO/AVC
Duration                                 : 1 h 26 min
Bit rate                                 : 4 550 kb/s
Width                                    : 1 916 pixels
Height                                   : 812 pixels
Display aspect ratio                     : 2.35:1
Frame rate mode                          : Constant
Frame rate                               : 23.976 (23976/1000) FPS
Color space                              : YUV
Chroma subsampling                       : 4:2:0
Bit depth                                : 8 bits
Scan type                                : Progressive
Bits/(Pixel*Frame)                       : 0.122
Stream size                              : 2.76 GiB (92%)
Title                                    : Still.Born.2017.1080p.WEB-DL.DD5.1.H264-FGT
Language                                 : English
Default                                  : Yes
Forced                                   : No
Color range                              : Limited
Color primaries                          : BT.709
Transfer characteristics                 : BT.709
Matrix coefficients                      : BT.709

Audio
ID                                       : 2
Format                                   : AC-3
Format/Info                              : Audio Coding 3
Codec ID                                 : A_AC3
Duration                                 : 1 h 26 min
Bit rate mode                            : Constant
Bit rate                                 : 384 kb/s
Channel(s)                               : 6 channels
Channel positions                        : Front: L C R, Side: L R, LFE
Sampling rate                            : 48.0 kHz
Frame rate                               : 31.250 FPS (1536 SPF)
Bit depth                                : 16 bits
Compression mode                         : Lossy
Delay relative to video                  : -42 ms
Stream size                              : 239 MiB (8%)
Title                                    : Still.Born.2017.1080p.WEB-DL.DD5.1.H264-FGT
Language                                 : English
Service kind                             : Complete Main
Default                                  : Yes
Forced                                   : No

Menu
00:00:00.000                             : en:1
00:05:18.000                             : en:2
00:11:10.000                             : en:3
00:16:24.000                             : en:4
00:22:14.000                             : en:5
00:27:44.000                             : en:6
00:33:49.000                             : en:7
00:40:55.000                             : en:8
00:46:46.000                             : en:9
00:53:07.000                             : en:10
00:57:04.000                             : en:11
01:03:17.000                             : en:12
01:08:35.000                             : en:13
01:12:25.000                             : en:14
01:20:15.000                             : en:15
01:24:22.000                             : en:16




种子百度云下载:
https://pan.baidu.com/s/1wqkPKRur0L8du1kCZd1jYQ 密码: 89re

种子本地下载:
Still.Born.2017.1080p.WEB-DL.DD5.1.H264-FGT.torrent (60.47 KB, 下载次数: 12)
本人发布的资源如果发现失效,可以私信联系我,能修复的我尽量修复。

1

主题

74

帖子

-23

积分

民兵

UID
321522
积分
-23
冰币
-271
威望
0
发表于 2018-4-12 08:48:08 | 显示全部楼层
感谢楼主分享
回复 支持 反对

使用道具 举报

1

主题

4586

帖子

595

积分

大将

Rank: 4

UID
365067
积分
595
冰币
6482
威望
0
发表于 7 天前 | 显示全部楼层
谢谢分享精彩影片
回复 支持 反对

使用道具 举报

本版积分规则

手机版|小黑屋|冰冰网 ( 粤ICP备10024810号-1 )

GMT+8, 2018-4-20 10:52

Powered by www.discuz.net Discuz! X3.4

© 2001-2012 Comsenz Inc sitemap a67 s80


本站影视音乐资源来自互联网免费共享,仅供交流学习之用,版权归作者本人所有,如果侵犯了您的权益,请通知我们,邮箱地址mail@aapig.com
快速回复 返回顶部 返回列表