手机冰冰网

 找回密码
 开放注册,禁止乱回复
搜索
查看: 91|回复: 4

[欧美] 神探狗笨吉 Benji.2018.1080p.WEBRip.x264-WEBTiFUL 2.89GB

[复制链接]
 成长值: 3420

7296

主题

7467

帖子

49万

积分

参谋

非凡-feifang

Rank: 8Rank: 8

UID
2
积分
495593
冰币
21662
威望
237

管理员

发表于 2018-4-11 21:08:57 | 显示全部楼层 |阅读模式 |        |
1.jpg
◎中文译名 神探狗笨吉
◎片  名 Benji
◎日  期 2018
◎产  地 美国
◎影片类型 剧情
◎对  白 英语
◎上映日期 2018-03-16(美国)
◎影片时长 85分钟
◎影片导演 布兰登·坎普 Brandon Camp
◎主要演员 加布里埃尔·贝特曼 Gabriel Bateman
      达比·坎普 Darby Camp
      基拉·桑切斯 Kiele Sanchez
      安格斯·桑普森 Angus Sampson
      威尔·罗斯海尔 Will Rothhaar
      乔恩·亚瑟 Jon Arthur

◎资源介绍

  “笨吉”原本是一只吃百家饭的流浪狗。它最喜欢一对兄妹,因为他俩经常瞒着妈妈悄悄陪它玩耍,喂它美食。某天,这对兄妹被坏人绑架。在妈妈和警方都惶恐不安而又无所适从之时,聪明勇敢的“神探狗”笨吉克服险阻,用自己的方式救出了这对兄妹,也找到了梦寐以求的家。笨吉的故事提醒我们,身边的宠物或许就是拯救人类的英雄。

Video
ID                                       : 7
Format                                   : AVC
Format/Info                              : Advanced Video Codec
Format profile                           : High@L4.1
Format settings                          : CABAC / 5 Ref Frames
Format settings, CABAC                   : Yes
Format settings, ReFrames                : 5 frames
Codec ID                                 : V_MPEG4/ISO/AVC
Duration                                 : 1 h 27 min
Bit rate                                 : 4 359 kb/s
Width                                    : 1 920 pixels
Height                                   : 800 pixels
Display aspect ratio                     : 2.40:1
Frame rate mode                          : Constant
Frame rate                               : 23.976 (24000/1001) FPS
Color space                              : YUV
Chroma subsampling                       : 4:2:0
Bit depth                                : 8 bits
Scan type                                : Progressive
Bits/(Pixel*Frame)                       : 0.118
Stream size                              : 2.66 GiB (92%)
Writing library                          : x264 core 155 r2901 7d0ff22
Encoding settings                        : cabac=1 / ref=5 / deblock=1:0:0 / analyse=0x3:0x113 / me=hex / subme=8 / psy=1 / psy_rd=1.00:0.00 / mixed_ref=1 / me_range=16 / chroma_me=1 / trellis=2 / 8x8dct=1 / cqm=0 / deadzone=21,11 / fast_pskip=1 / chroma_qp_offset=-2 / threads=24 / lookahead_threads=4 / sliced_threads=0 / nr=0 / decimate=1 / interlaced=0 / bluray_compat=0 / constrained_intra=0 / bframes=3 / b_pyramid=2 / b_adapt=1 / b_bias=0 / direct=3 / weightb=1 / open_gop=0 / weightp=2 / keyint=240 / keyint_min=24 / scenecut=40 / intra_refresh=0 / rc_lookahead=50 / rc=crf / mbtree=1 / crf=19.0 / qcomp=0.60 / qpmin=0 / qpmax=69 / qpstep=4 / vbv_maxrate=62500 / vbv_bufsize=78125 / crf_max=0.0 / nal_hrd=none / filler=0 / ip_ratio=1.40 / aq=1:1.00
Default                                  : Yes
Forced                                   : No
Color range                              : Limited
Color primaries                          : BT.709
Transfer characteristics                 : BT.709
Matrix coefficients                      : BT.709

Audio
ID                                       : 1
Format                                   : AC-3
Format/Info                              : Audio Coding 3
Codec ID                                 : A_AC3
Duration                                 : 1 h 27 min
Bit rate mode                            : Constant
Bit rate                                 : 384 kb/s
Channel(s)                               : 6 channels
Channel positions                        : Front: L C R, Side: L R, LFE
Sampling rate                            : 48.0 kHz
Frame rate                               : 31.250 FPS (1536 SPF)
Bit depth                                : 16 bits
Compression mode                         : Lossy
Stream size                              : 240 MiB (8%)
Language                                 : English
Service kind                             : Complete Main
Default                                  : Yes
Forced                                   : No

Text #1
ID                                       : 2
Format                                   : ASS
Codec ID                                 : S_TEXT/ASS
Codec ID/Info                            : Advanced Sub Station Alpha
Duration                                 : 1 h 25 min
Bit rate                                 : 80 b/s
Count of elements                        : 956
Compression mode                         : Lossless
Stream size                              : 50.7 KiB (0%)
Title                                    : English
Language                                 : English
Default                                  : No
Forced                                   : No

Text #2
ID                                       : 3
Format                                   : ASS
Codec ID                                 : S_TEXT/ASS
Codec ID/Info                            : Advanced Sub Station Alpha
Duration                                 : 1 h 25 min
Bit rate                                 : 61 b/s
Count of elements                        : 749
Compression mode                         : Lossless
Stream size                              : 39.0 KiB (0%)
Title                                    : German
Language                                 : German
Default                                  : No
Forced                                   : No

Text #3
ID                                       : 4
Format                                   : ASS
Codec ID                                 : S_TEXT/ASS
Codec ID/Info                            : Advanced Sub Station Alpha
Duration                                 : 1 h 25 min
Bit rate                                 : 60 b/s
Count of elements                        : 775
Compression mode                         : Lossless
Stream size                              : 38.2 KiB (0%)
Title                                    : French
Language                                 : French
Default                                  : No
Forced                                   : No

Text #4
ID                                       : 5
Format                                   : ASS
Codec ID                                 : S_TEXT/ASS
Codec ID/Info                            : Advanced Sub Station Alpha
Duration                                 : 1 h 25 min
Bit rate                                 : 58 b/s
Count of elements                        : 742
Compression mode                         : Lossless
Stream size                              : 36.5 KiB (0%)
Title                                    : Dutch
Language                                 : Dutch
Default                                  : No
Forced                                   : No

Text #5
ID                                       : 6
Format                                   : ASS
Codec ID                                 : S_TEXT/ASS
Codec ID/Info                            : Advanced Sub Station Alpha
Duration                                 : 1 h 25 min
Bit rate                                 : 64 b/s
Count of elements                        : 788
Compression mode                         : Lossless
Stream size                              : 40.6 KiB (0%)
Title                                    : Turkish
Language                                 : Turkish
Default                                  : No
Forced                                   : No





种子百度云下载:
https://pan.baidu.com/s/1zjQzPJlE8Ape25CUewiIVQ 密码: jnun

种子本地下载:
Benji.2018.1080p.WEBRip.x264-WEBTiFUL.torrent (58.39 KB, 下载次数: 9)
本人发布的资源如果发现失效,可以私信联系我,能修复的我尽量修复。

1

主题

74

帖子

-23

积分

民兵

UID
321522
积分
-23
冰币
-271
威望
0
发表于 2018-4-12 08:47:10 | 显示全部楼层
感谢楼主分享
回复 支持 反对

使用道具 举报

1

主题

743

帖子

478

积分

部将

Rank: 3Rank: 3

UID
446142
积分
478
冰币
5128
威望
0
发表于 2018-4-13 02:14:04 | 显示全部楼层
谢谢楼主分享
回复 支持 反对

使用道具 举报

1

主题

4586

帖子

595

积分

大将

Rank: 4

UID
365067
积分
595
冰币
6482
威望
0
发表于 2018-4-13 07:37:48 | 显示全部楼层
谢谢分享精彩影片
回复 支持 反对

使用道具 举报

本版积分规则

手机版|小黑屋|冰冰网 ( 粤ICP备10024810号-1 )

GMT+8, 2018-4-21 19:43

Powered by www.discuz.net Discuz! X3.4

© 2001-2012 Comsenz Inc sitemap a67 s80


本站影视音乐资源来自互联网免费共享,仅供交流学习之用,版权归作者本人所有,如果侵犯了您的权益,请通知我们,邮箱地址mail@aapig.com
快速回复 返回顶部 返回列表