手机冰冰网

 找回密码
 开放注册,禁止乱回复
搜索
查看: 243|回复: 7

[韩日] 亚人真人版[内封中字]Ajin.Demi-Human.2017.1080p.BluRay.x264.DTS-WiKi 10GB

[复制链接]
 成长值: 3410

7290

主题

7461

帖子

49万

积分

参谋

非凡-feifang

Rank: 8Rank: 8

UID
2
积分
495589
冰币
21643
威望
237

管理员

发表于 2018-4-11 21:43:54 | 显示全部楼层 |阅读模式 |        |
1.jpg
◎中文译名 亚人 真人版
◎片  名 亜人
◎日  期 2017
◎产  地 日本
◎影片类型 剧情/动作/奇幻
◎对  白 日语
◎上映日期 2017-09-30(日本)
◎IMDb评分  7.2/10 from 263 users
◎IMDB链接  www.aapig.com.cn www.imdb.com/title/tt6215712/
◎豆瓣评分 7.2/10 from 868 users
◎豆瓣链接 https://movie.douban.com/subject/26864096/
◎影片时长 109分钟
◎影片导演 本广克行 Katsuyuki Motohiro
◎主要演员 佐藤健 Takeru Satô
      绫野刚 Gô Ayano
      山田裕贵 Yûki Yamada
      城田优 Yuu Shirota
      千叶雄大 Yudai Chiba
      滨边美波 Minami Hamabe
      玉山铁二 Tetsuji Tamayama
      川荣李奈 Rina Kawaei

◎资源介绍

  实习医生永井圭(佐藤健 饰)在车祸中意外发现自己拥有不死之身,是传说中的「亚人」。他随即遭到政府机关追捕,被送往研究所进行非人道实验,反复经历死亡的痛苦,与政府声称会保护亚人的事实完全不符。另一亚人佐藤(绫野刚 饰)残忍杀害研究所人员,把永井救出,游说他并肩发起武力革命,向政府争取成立亚人自治区。永井极不认同佐藤的暴力手段,但眼见一场腥风血雨已经来袭,他不得再置身事外,两个不死人之间的血战一触即发!

Video
ID                                       : 1
Format                                   : AVC
Format/Info                              : Advanced Video Codec
Format profile                           : High@L4.1
Format settings                          : CABAC / 5 Ref Frames
Format settings, CABAC                   : Yes
Format settings, ReFrames                : 5 frames
Codec ID                                 : V_MPEG4/ISO/AVC
Duration                                 : 1 h 48 min
Bit rate                                 : 11.7 Mb/s
Width                                    : 1 920 pixels
Height                                   : 804 pixels
Display aspect ratio                     : 2.40:1
Frame rate mode                          : Constant
Frame rate                               : 23.976 (24000/1001) FPS
Color space                              : YUV
Chroma subsampling                       : 4:2:0
Bit depth                                : 8 bits
Scan type                                : Progressive
Bits/(Pixel*Frame)                       : 0.316
Stream size                              : 8.85 GiB (88%)
Writing library                          : x264 core 129 r2245+704+36 8e61944 tMod+MixAQ [8-bit@4:2:0 X86_64]
Encoding settings                        : cabac=1 / ref=5 / deblock=1:-3:-3 / analyse=0x3:0x133 / me=umh / subme=11 / psy=1 / fade_compensate=0.00 / psy_rd=1.05:0.10 / mixed_ref=1 / me_range=64 / chroma_me=1 / trellis=2 / 8x8dct=1 / cqm=0 / deadzone=21,11 / fast_pskip=0 / chroma_qp_offset=-3 / threads=18 / lookahead_threads=3 / sliced_threads=0 / nr=0 / decimate=0 / interlaced=0 / bluray_compat=0 / constrained_intra=0 / fgo=0 / bframes=10 / b_pyramid=2 / b_adapt=2 / b_bias=0 / direct=3 / weightb=1 / open_gop=0 / weightp=2 / keyint=250 / keyint_min=23 / scenecut=40 / intra_refresh=0 / rc=2pass / mbtree=0 / bitrate=11706 / ratetol=1.0 / qcomp=0.70 / qpmin=0 / qpmax=69 / qpstep=4 / cplxblur=20.0 / qblur=0.5 / ip_ratio=1.40 / pb_ratio=1.30 / aq=1 / aq-strength=0.85 / aq-sensitivity=10.00 / aq-ifactor=1.00 / aq-pfactor=1.00 / aq-bfactor=1.00 / aq2=0
Language                                 : Japanese
Default                                  : Yes
Forced                                   : No

Audio
ID                                       : 2
Format                                   : DTS
Format/Info                              : Digital Theater Systems
Codec ID                                 : A_DTS
Duration                                 : 1 h 48 min
Bit rate mode                            : Constant
Bit rate                                 : 1 509 kb/s
Channel(s)                               : 6 channels
Channel positions                        : Front: L C R, Side: L R, LFE
Sampling rate                            : 48.0 kHz
Frame rate                               : 93.750 FPS (512 SPF)
Bit depth                                : 24 bits
Compression mode                         : Lossy
Stream size                              : 1.14 GiB (11%)
Language                                 : Japanese
Default                                  : Yes
Forced                                   : No

Text
ID                                       : 3
Format                                   : ASS
Codec ID                                 : S_TEXT/ASS
Codec ID/Info                            : Advanced Sub Station Alpha
Duration                                 : 1 h 43 min
Bit rate                                 : 74 b/s
Count of elements                        : 1129
Compression mode                         : Lossless
Stream size                              : 56.7 KiB (0%)
Language                                 : Chinese
Default                                  : Yes
Forced                                   : No

Menu
00:00:00.000                             : en:00:00:00.000
00:08:26.088                             : en:00:08:26.088
00:20:48.705                             : en:00:20:48.705
00:38:08.452                             : en:00:38:08.452
00:56:15.288                             : en:00:56:15.288
01:09:23.367                             : en:01:09:23.367
01:25:15.902                             : en:01:25:15.902
01:42:12.000                             : en:01:42:12.000
01:48:14.487                             : en:01:48:14.487






种子百度云下载:
https://pan.baidu.com/s/1yngQbOb5o67xfy0yUw1AWg 密码: 3ibe

种子本地下载:
Ajin.Demi-Human.2017.1080p.BluRay.x264.DTS-WiKi.torrent (50.54 KB, 下载次数: 47)
本人发布的资源如果发现失效,可以私信联系我,能修复的我尽量修复。

0

主题

1

帖子

-33

积分

平民

UID
553609
积分
-33
冰币
-369
威望
0
发表于 2018-4-11 21:44:42 | 显示全部楼层
谢谢楼主分享!
回复 支持 反对

使用道具 举报

1

主题

74

帖子

-23

积分

民兵

UID
321522
积分
-23
冰币
-271
威望
0
发表于 2018-4-12 08:45:42 | 显示全部楼层
感谢楼主分享
回复 支持 反对

使用道具 举报

0

主题

4

帖子

-31

积分

平民

UID
553636
积分
-31
冰币
-346
威望
0
发表于 2018-4-12 14:51:15 | 显示全部楼层
谢谢楼主分享!
回复 支持 反对

使用道具 举报

1

主题

4586

帖子

595

积分

大将

Rank: 4

UID
365067
积分
595
冰币
6482
威望
0
发表于 7 天前 | 显示全部楼层
谢谢分享精彩影片
回复 支持 反对

使用道具 举报

0

主题

117

帖子

-11

积分

民兵

UID
353532
积分
-11
冰币
-173
威望
0
发表于 7 天前 | 显示全部楼层
感谢楼主分享!
回复 支持 反对

使用道具 举报

1

主题

4586

帖子

595

积分

大将

Rank: 4

UID
365067
积分
595
冰币
6482
威望
0
发表于 前天 07:27 | 显示全部楼层
谢谢楼主无私奉献
回复 支持 反对

使用道具 举报

0

主题

63

帖子

-18

积分

民兵

UID
535726
积分
-18
冰币
-204
威望
0
发表于 前天 16:48 | 显示全部楼层
谢发片。说实话,对日本科幻片没啥信心
回复 支持 反对

使用道具 举报

本版积分规则

手机版|小黑屋|冰冰网 ( 粤ICP备10024810号-1 )

GMT+8, 2018-4-20 12:48

Powered by www.discuz.net Discuz! X3.4

© 2001-2012 Comsenz Inc sitemap a67 s80


本站影视音乐资源来自互联网免费共享,仅供交流学习之用,版权归作者本人所有,如果侵犯了您的权益,请通知我们,邮箱地址mail@aapig.com
快速回复 返回顶部 返回列表