手机冰冰网

 找回密码
 开放注册,禁止乱回复
搜索
查看: 228|回复: 7

[欧美] 爱情比赛 The.Competition.2018.1080p.BluRay.x264.DTS-HD.MA.5.1-MT 12.6GB

[复制链接]
 成长值: 3410

7290

主题

7461

帖子

49万

积分

参谋

非凡-feifang

Rank: 8Rank: 8

UID
2
积分
495589
冰币
21643
威望
237

管理员

发表于 2018-4-12 21:25:22 | 显示全部楼层 |阅读模式 |        |
1.jpg
◎中文译名 比赛/竞赛
◎片  名 The Competition
◎日  期 2018
◎产  地 美国
◎影片类型 喜剧/爱情
◎对  白 英语
◎上映日期 2018-01-26(美国)
◎IMDb评分  4.2/10 from 173 users
◎IMDB链接  www.aapig.com.cn www.imdb.com/title/tt5841344/
◎影片时长 103分钟
◎影片导演 哈维·洛瑞
◎主要演员 索拉桦木
      克莱尔咖啡
      大卫蓝

◎资源介绍

   主角(索拉桦木)遵循“PIG理论”,并结束六个月后的关系,以避免心痛,直到她遇到一个男人(克里斯克莱因)谁想反驳她的理论。

Video
ID                                       : 1
Format                                   : AVC
Format/Info                              : Advanced Video Codec
Format profile                           : High@L4.1
Format settings                          : CABAC / 5 Ref Frames
Format settings, CABAC                   : Yes
Format settings, ReFrames                : 5 frames
Codec ID                                 : V_MPEG4/ISO/AVC
Duration                                 : 1 h 43 min
Bit rate                                 : 14.1 Mb/s
Width                                    : 1 920 pixels
Height                                   : 802 pixels
Display aspect ratio                     : 2.40:1
Frame rate mode                          : Constant
Frame rate                               : 23.976 (24000/1001) FPS
Color space                              : YUV
Chroma subsampling                       : 4:2:0
Bit depth                                : 8 bits
Scan type                                : Progressive
Bits/(Pixel*Frame)                       : 0.382
Stream size                              : 10.2 GiB (81%)
Default                                  : Yes
Forced                                   : No

Audio
ID                                       : 2
Format                                   : DTS
Format/Info                              : Digital Theater Systems
Format profile                           : MA / Core
Codec ID                                 : A_DTS
Duration                                 : 1 h 43 min
Bit rate mode                            : Variable / Constant
Bit rate                                 : 3 408 kb/s / 1 509 kb/s
Channel(s)                               : 6 channels
Channel positions                        : Front: L C R, Side: L R, LFE
Sampling rate                            : 48.0 kHz
Frame rate                               : 93.750 FPS (512 SPF)
Bit depth                                : 24 bits
Compression mode                         : Lossless / Lossy
Stream size                              : 2.46 GiB (19%)
Default                                  : Yes
Forced                                   : No





种子百度云下载:
https://pan.baidu.com/s/1sxATNW0q7zColbQ2oObDtA 密码: 2cju

种子本地下载:
The.Competition.2018.1080p.BluRay.x264.DTS-HD.MA.5.1-MT.torrent (63.79 KB, 下载次数: 18)
本人发布的资源如果发现失效,可以私信联系我,能修复的我尽量修复。

2

主题

970

帖子

912

积分

大将

Rank: 4

UID
477285
积分
912
冰币
9879
威望
0
发表于 7 天前 | 显示全部楼层
谢谢楼主分享影片。
回复 支持 反对

使用道具 举报

1

主题

4586

帖子

595

积分

大将

Rank: 4

UID
365067
积分
595
冰币
6482
威望
0
发表于 7 天前 | 显示全部楼层
谢谢分享精彩影片
回复 支持 反对

使用道具 举报

0

主题

29

帖子

-29

积分

平民

UID
538118
积分
-29
冰币
-329
威望
0
发表于 7 天前 | 显示全部楼层
好东西,谢谢分享!!!!!!!!!!!!!!!!!!!!!!!!!
回复 支持 反对

使用道具 举报

1

主题

70

帖子

7

积分

大兵

Rank: 1

UID
329403
积分
7
冰币
69
威望
0
发表于 5 天前 | 显示全部楼层
谢分享精彩影片
回复 支持 反对

使用道具 举报

0

主题

333

帖子

23

积分

大兵

Rank: 1

UID
546801
积分
23
冰币
231
威望
0
发表于 4 天前 | 显示全部楼层
谢谢楼主分享影片。
回复 支持 反对

使用道具 举报

0

主题

63

帖子

-18

积分

民兵

UID
535726
积分
-18
冰币
-204
威望
0
发表于 前天 14:28 | 显示全部楼层
男不帅女不靓
回复 支持 反对

使用道具 举报

本版积分规则

手机版|小黑屋|冰冰网 ( 粤ICP备10024810号-1 )

GMT+8, 2018-4-20 10:49

Powered by www.discuz.net Discuz! X3.4

© 2001-2012 Comsenz Inc sitemap a67 s80


本站影视音乐资源来自互联网免费共享,仅供交流学习之用,版权归作者本人所有,如果侵犯了您的权益,请通知我们,邮箱地址mail@aapig.com
快速回复 返回顶部 返回列表