手机冰冰网

 找回密码
 开放注册,禁止乱回复
搜索
查看: 116|回复: 3

[其他] 让我死/魍美[内封中字]Net.I.Die.2017.1080p.BluRay.x264-WiKi 7.95GB

[复制链接]
 成长值: 3400

7287

主题

7458

帖子

49万

积分

参谋

非凡-feifang

Rank: 8Rank: 8

UID
2
积分
495587
冰币
21637
威望
237

管理员

发表于 3 天前 | 显示全部楼层 |阅读模式 |        |
1.jpg
◎中文译名 让我死/魍美(台)
◎片  名 Net I Die
◎日  期 2017
◎产  地 泰国
◎影片类型 惊悚/恐怖
◎对  白 泰语
◎上映日期 2017-08-17(泰国)
◎IMDb评分  4.0/10 from 46 users
◎IMDB链接  www.aapig.com.cn www.imdb.com/title/tt7154176/
◎影片时长 86分钟
◎影片导演 Weeratham Preedee
◎主要演员 Klai-Udom Sarantorn
      Kachai Pich
      Fahkuelon Ratsameekhae

◎资源介绍

  人氣網紅莫妮卡(琪洽安瑪達雅婫 飾)在當紅時,突然自殺死亡。1年後,莫妮卡的自殺影片在網路瘋傳,這段影片的標籤竟列出其他許多網紅的名字。其中一個名字是成功經營自創化妝品牌的瑪莉莎(莎蘭通.凱烏東 飾),她開始遭遇到許多怪異事件,而其他被標記的人則接連死亡。瑪莉莎成日被各種幻覺嚇得精神不濟,甚至摔傷住院,男友阿杰不忍看著她日漸憔悴,決定要找出這離奇事件背後的真相,他暗自著手調查,漸漸發現事件後的真相,瑪莉莎能夠躲過死神召喚活下來嗎?最超越你瘋狂想像的駭人故事即將上演!

Video
ID                                       : 1
Format                                   : AVC
Format/Info                              : Advanced Video Codec
Format profile                           : High@L4.1
Format settings                          : CABAC / 5 Ref Frames
Format settings, CABAC                   : Yes
Format settings, ReFrames                : 5 frames
Codec ID                                 : V_MPEG4/ISO/AVC
Duration                                 : 1 h 25 min
Bit rate                                 : 12.7 Mb/s
Width                                    : 1 920 pixels
Height                                   : 808 pixels
Display aspect ratio                     : 2.40:1
Frame rate mode                          : Constant
Frame rate                               : 24.000 FPS
Color space                              : YUV
Chroma subsampling                       : 4:2:0
Bit depth                                : 8 bits
Scan type                                : Progressive
Bits/(Pixel*Frame)                       : 0.342
Stream size                              : 7.57 GiB (95%)
Writing library                          : x264 core 129 r2245 bc13772
Encoding settings                        : cabac=1 / ref=5 / deblock=1:-3:-3 / analyse=0x3:0x133 / me=umh / subme=11 / psy=1 / psy_rd=1.05:0.05 / mixed_ref=1 / me_range=64 / chroma_me=1 / trellis=2 / 8x8dct=1 / cqm=0 / deadzone=21,11 / fast_pskip=0 / chroma_qp_offset=-3 / threads=12 / lookahead_threads=2 / sliced_threads=0 / nr=0 / decimate=1 / interlaced=0 / bluray_compat=0 / constrained_intra=0 / bframes=8 / b_pyramid=2 / b_adapt=2 / b_bias=0 / direct=3 / weightb=1 / open_gop=0 / weightp=2 / keyint=250 / keyint_min=24 / scenecut=40 / intra_refresh=0 / rc_lookahead=60 / rc=2pass / mbtree=1 / bitrate=12741 / ratetol=1.0 / qcomp=0.60 / qpmin=0 / qpmax=69 / qpstep=4 / cplxblur=20.0 / qblur=0.5 / vbv_maxrate=40000 / vbv_bufsize=30000 / nal_hrd=none / ip_ratio=1.40 / aq=1:0.65
Language                                 : English
Default                                  : Yes
Forced                                   : No

Audio
ID                                       : 2
Format                                   : AC-3
Format/Info                              : Audio Coding 3
Codec ID                                 : A_AC3
Duration                                 : 1 h 25 min
Bit rate mode                            : Constant
Bit rate                                 : 640 kb/s
Channel(s)                               : 6 channels
Channel positions                        : Front: L C R, Side: L R, LFE
Sampling rate                            : 48.0 kHz
Frame rate                               : 31.250 FPS (1536 SPF)
Bit depth                                : 16 bits
Compression mode                         : Lossy
Stream size                              : 389 MiB (5%)
Language                                 : Thai
Service kind                             : Complete Main
Default                                  : Yes
Forced                                   : No

Text #1
ID                                       : 3
Format                                   : UTF-8
Codec ID                                 : S_TEXT/UTF8
Codec ID/Info                            : UTF-8 Plain Text
Duration                                 : 1 h 21 min
Bit rate                                 : 23 b/s
Count of elements                        : 685
Stream size                              : 14.1 KiB (0%)
Title                                    : 繁体
Language                                 : Chinese
Default                                  : Yes
Forced                                   : No

Text #2
ID                                       : 4
Format                                   : UTF-8
Codec ID                                 : S_TEXT/UTF8
Codec ID/Info                            : UTF-8 Plain Text
Duration                                 : 1 h 21 min
Bit rate                                 : 23 b/s
Count of elements                        : 685
Stream size                              : 14.1 KiB (0%)
Title                                    : 简体
Language                                 : Chinese
Default                                  : No
Forced                                   : No







种子百度云下载:
https://pan.baidu.com/s/1uIGHr609JrTWw9sAPwKaMQ 密码: i16n

种子本地下载:
Net.I.Die.2017.1080p.BluRay.x264-WiKi.torrent (80.01 KB, 下载次数: 8)
本人发布的资源如果发现失效,可以私信联系我,能修复的我尽量修复。

0

主题

333

帖子

23

积分

大兵

Rank: 1

UID
546801
积分
23
冰币
231
威望
0
发表于 前天 07:27 | 显示全部楼层
感谢楼主分享。
回复 支持 反对

使用道具 举报

0

主题

19

帖子

-31

积分

平民

UID
552191
积分
-31
冰币
-348
威望
0
发表于 前天 18:40 | 显示全部楼层
感谢楼主分享
回复 支持 反对

使用道具 举报

0

主题

63

帖子

-18

积分

民兵

UID
535726
积分
-18
冰币
-204
威望
0
发表于 昨天 12:26 | 显示全部楼层
电影海报的设计还复改进
回复 支持 反对

使用道具 举报

本版积分规则

手机版|小黑屋|冰冰网 ( 粤ICP备10024810号-1 )

GMT+8, 2018-4-19 21:47

Powered by www.discuz.net Discuz! X3.4

© 2001-2012 Comsenz Inc sitemap a67 s80


本站影视音乐资源来自互联网免费共享,仅供交流学习之用,版权归作者本人所有,如果侵犯了您的权益,请通知我们,邮箱地址mail@aapig.com
快速回复 返回顶部 返回列表